***Уважаемые пользователи и гости !!! Сайт переехал на новый домен Torrents-club.net. Просьба изменить ваши закладки! ***
 
[ Сегодня идет свободное скачивание без начисления Download ]


Статистика раздачи
Скачал: [ 1 ]
 
   
 
 
 
 
Великий уравнитель 2 / The Equalizer 2 (2018) BDRip 1080p | 60 fps •Название: Великий уравнитель 2
•Оригинальное название: The Equalizer 2
•Год выхода: 2018
•Жанр: боевик, триллер, криминал
•Режиссер: Антуан Фукуа / Antoine Fuqua
•В ролях: Дензел Вашингтон (Robert McCall), Педро Паскаль (Dave York), Эштон Сандерс (Miles Whittaker), Орсон Бин (Sam Rubinstein), Билл Пуллман (Brian Plummer), Мелисса Лео (Susan Plummer), Джонатан Скарф (Resnik), Сакина Джэффри (Fatima), Кази Таугинас (Ari), Гарретт Голден (Kovac), Адам Карст (Turkish Father), Аликан Барлас (Dining Car Porter)
•О фильме:
Бывший спецагент Роберт Маккол продолжает помогать хорошим, по его мнению, людям и наказывать плохих. ЦРУ считает его погибшим, и только старый друг и бывшая коллега Сьюзан знает его тайну и периодически заходит в гости. Когда на очередном задании в Брюсселе Сьюзан убивают, пытаясь замаскировать это под ограбление, Маккол решает разобраться и отомстить всем причастным.

Страна: США
Продолжительность: 02:00:57
Перевод: Профессиональный (полное дублирование) [Лицензия]
Формат: MKV
Качество: BDRip 1080p 60 fps (Источник: BDRemux 1080p)
Видео: MPEG-4 AVC, 1920x800 (2.40:1), 14.0 Mb/s, 59,940 fps, 0,152 bpp
Аудио №1: Русский / AC3 / 5.1 / 48 kHz / 640 kbps / 16 bit
Аудио №2: Украинский / AC3 / 2.0 / 48 kHz / 192 kbps / 16 bit
Аудио №3: Английский / DTS-HD / 48 kHz / 2379 kbps / 16 bit
Субтитры: Русские (форс., полные), Украинские (форс., полные), Английские

Media Info

General
Unique ID : 340275844816683917927192354995132881381 (0xFFFEBE6F788F971EE9C65993F4E6D9E5)
Complete name : E:The.Equalizer.2.2018..BDRip.1080p.60.fps.and77200.mkv
Format : Matroska
Format version : Version 4 / Version 2
File size : 14.8 GiB
Duration : 2h 0mn
Overall bit rate mode : Variable
Overall bit rate : 17.6 Mbps
Movie name : Великий уравнитель 2.2018 - and77200
Encoded date : UTC 2018-12-24 17:40:06
Writing application : mkvmerge v20.0.0 ('I Am The Sun') 64-bit
Writing library : libebml v1.3.5 + libmatroska v1.4.8
DURATION : 01:52:17.469000000
NUMBER_OF_FRAMES : 1283
NUMBER_OF_BYTES : 34402
_STATISTICS_WRITING_APP : mkvmerge v20.0.0 ('I Am The Sun') 64-bit
_STATISTICS_WRITING_DATE_UTC : 2018-12-24 17:40:06
_STATISTICS_TAGS : BPS DURATION NUMBER_OF_FRAMES NUMBER_OF_BYTES
Video
ID : 1
Format : AVC
Format/Info : Advanced Video Codec
Format profile : High@L4.1
Format settings, CABAC : Yes
Format settings, ReFrames : 5 frames
Codec ID : V_MPEG4/ISO/AVC
Duration : 2h 0mn
Bit rate : 14.0 Mbps
Width : 1 920 pixels
Height : 800 pixels
Display aspect ratio : 2.40:1
Frame rate : 59.940 fps
Color space : YUV
Chroma subsampling : 4:2:0
Bit depth : 8 bits
Scan type : Progressive
Bits/(Pixel*Frame) : 0.152
Stream size : 11.8 GiB (80%)
Writing library : x264 core 146 r2538 121396c
Encoding settings : cabac=1 / ref=5 / deblock=1:-1:-1 / analyse=0x3:0x113 / me=umh / subme=9 / psy=1 / psy_rd=1.00:0.15 / mixed_ref=1 / me_range=32 / chroma_me=1 / trellis=1 / 8x8dct=1 / cqm=0 / deadzone=21,11 / fast_pskip=1 / chroma_qp_offset=-3 / threads=6 / lookahead_threads=1 / sliced_threads=0 / nr=0 / decimate=1 / interlaced=0 / bluray_compat=0 / constrained_intra=0 / bframes=16 / b_pyramid=2 / b_adapt=1 / b_bias=0 / direct=1 / weightb=1 / open_gop=0 / weightp=2 / keyint=250 / keyint_min=25 / scenecut=40 / intra_refresh=0 / rc_lookahead=40 / rc=2pass / mbtree=1 / bitrate=14000 / ratetol=1.0 / qcomp=0.60 / qpmin=0 / qpmax=69 / qpstep=4 / cplxblur=20.0 / qblur=0.5 / ip_ratio=1.40 / aq=1:1.00
Language : English
Default : Yes
Forced : No
DURATION : 02:00:57.184000000
NUMBER_OF_FRAMES : 434996
NUMBER_OF_BYTES : 12700189176
_STATISTICS_WRITING_APP : mkvmerge v20.0.0 ('I Am The Sun') 64-bit
_STATISTICS_WRITING_DATE_UTC : 2018-12-24 17:40:06
_STATISTICS_TAGS : BPS DURATION NUMBER_OF_FRAMES NUMBER_OF_BYTES
Audio #1
ID : 2
Format : AC-3
Format/Info : Audio Coding 3
Mode extension : CM (complete main)
Codec ID : A_AC3
Duration : 2h 0mn
Bit rate mode : Constant
Bit rate : 640 Kbps
Channel(s) : 6 channels
Channel positions : Front: L C R, Side: L R, LFE
Sampling rate : 48.0 KHz
Bit depth : 16 bits
Compression mode : Lossy
Stream size : 554 MiB (4%)
Title : Dub [License]
Language : Russian
Default : Yes
Forced : Yes
Audio #2
ID : 3
Format : AC-3
Format/Info : Audio Coding 3
Mode extension : CM (complete main)
Codec ID : A_AC3
Duration : 2h 0mn
Bit rate mode : Constant
Bit rate : 192 Kbps
Channel(s) : 2 channels
Channel positions : Front: L R
Sampling rate : 48.0 KHz
Bit depth : 16 bits
Compression mode : Lossy
Stream size : 166 MiB (1%)
Title : Dub [Ledoyen]
Language : Ukrainian
Default : No
Forced : No
Audio #3
ID : 4
Format : DTS
Format/Info : Digital Theater Systems
Format profile : MA / Core
Codec ID : A_DTS
Duration : 2h 0mn
Bit rate mode : Variable
Bit rate : 2 380 Kbps / 1 510 Kbps
Channel(s) : 8 channels / 6 channels
Channel positions : Front: L C R, Side: L R, Back: L R, LFE / Front: L C R, Side: L R, LFE
Sampling rate : 48.0 KHz
Bit depth : 16 bits
Compression mode : Lossless / Lossy
Title : Original
Language : English
Default : No
Forced : No
Text #1
ID : 5
Format : UTF-8
Codec ID : S_TEXT/UTF8
Codec ID/Info : UTF-8 Plain Text
Title : Forced
Language : Russian
Default : Yes
Forced : Yes
Text #2
ID : 6
Format : UTF-8
Codec ID : S_TEXT/UTF8
Codec ID/Info : UTF-8 Plain Text
Title : Full
Language : Russian
Default : No
Forced : No
Text #3
ID : 7
Format : UTF-8
Codec ID : S_TEXT/UTF8
Codec ID/Info : UTF-8 Plain Text
Title : Forced
Language : Ukrainian
Default : No
Forced : No
Text #4
ID : 8
Format : UTF-8
Codec ID : S_TEXT/UTF8
Codec ID/Info : UTF-8 Plain Text
Title : Full
Language : Ukrainian
Default : No
Forced : No
Text #5
ID : 9
Format : UTF-8
Codec ID : S_TEXT/UTF8
Codec ID/Info : UTF-8 Plain Text
Title : Full
Language : English
Default : No
Forced : No
Menu
00:00:00.000 : en:Chapter 1
00:01:31.758 : en:Chapter 2
00:01:58.577 : en:Chapter 3
00:04:54.127 : en:Chapter 4
00:05:33.041 : en:Chapter 5
00:05:51.893 : en:Chapter 6
00:06:24.092 : en:Chapter 7
00:06:55.498 : en:Chapter 8
00:07:06.635 : en:Chapter 9
00:07:35.622 : en:Chapter 10
00:07:53.765 : en:Chapter 11
00:08:09.781 : en:Chapter 12
00:08:21.793 : en:Chapter 13
00:08:38.935 : en:Chapter 14
00:09:08.840 : en:Chapter 15
00:09:44.375 : en:Chapter 16
00:11:32.233 : en:Chapter 17
00:11:41.075 : en:Chapter 18
00:12:05.725 : en:Chapter 19
00:13:03.783 : en:Chapter 20
00:15:24.674 : en:Chapter 21
00:15:58.291 : en:Chapter 22
00:16:19.186 : en:Chapter 23
00:16:54.347 : en:Chapter 24
00:17:58.327 : en:Chapter 25
00:19:33.547 : en:Chapter 26
00:20:02.993 : en:Chapter 27
00:20:55.963 : en:Chapter 28
00:23:04.633 : en:Chapter 29
00:23:50.179 : en:Chapter 30
00:23:59.688 : en:Chapter 31
00:24:13.994 : en:Chapter 32
00:24:20.709 : en:Chapter 33
00:25:47.588 : en:Chapter 34
00:28:22.617 : en:Chapter 35
00:28:39.426 : en:Chapter 36
00:31:49.908 : en:Chapter 37
00:32:04.589 : en:Chapter 38
00:32:13.640 : en:Chapter 39
00:34:11.174 : en:Chapter 40
00:35:14.571 : en:Chapter 41
00:36:09.834 : en:Chapter 42
01:31:39.244 : en:Chapter 43
01:32:20.660 : en:Chapter 44
01:32:41.014 : en:Chapter 45
01:33:19.969 : en:Chapter 46
01:34:56.524 : en:Chapter 47
01:41:27.832 : en:Chapter 48
01:41:36.382 : en:Chapter 49
01:42:24.722 : en:Chapter 50
01:46:59.496 : en:Chapter 51

[Цитировать]



Показать сообщения:    

Текущее время: 19-Янв 11:19

Часовой пояс: UTC + 6


Вы не можете начинать темы
Вы не можете отвечать на сообщения
Вы не можете редактировать свои сообщения
Вы не можете удалять свои сообщения
Вы не можете голосовать в опросах
Вы не можете прикреплять файлы к сообщениям
Вы не можете скачивать файлы

!ВНИМАНИЕ!
Сайт не предоставляет электронные версии произведений, а занимается лишь коллекционированием и каталогизацией ссылок, присылаемых и публикуемых на форуме нашими читателями. Если вы являетесь правообладателем какого-либо представленного материала и не желаете, чтобы ссылка на него находилась в нашем каталоге, свяжитесь с нами, и мы незамедлительно удалим ее. Файлы для обмена на трекере предоставлены пользователями сайта, и администрация не несет ответственности за их содержание. Просьба не заливать файлы, защищенные авторскими правами, а также файлы нелегального содержания!