***Уважаемые пользователи и гости !!! Сайт переехал на новый домен Torrents-club.net. Просьба изменить ваши закладки! ***
 
[ Сегодня идет свободное скачивание без начисления Download ]


Статистика раздачи
Скачал: [ 4 ]
 
   
 
 
 
 
Mylène Farmer - Désobéissance (2018) Nouvelle Edition - Жанр: Pop
Издание: Stuffed Monkey - 19075904212
Источник (релизер): espoir
Продолжительность: 00:50:18
Кодек: APE
Битрейт: Lossless
Тип рипа: image + .cue
Треклист:
01. Rolling stone
02. Sentimentale
03. Désobéissance
04. N'oublie pas
05. Histoire de fesses
06. Get up girl
07. Prière
08. Au lecteur
09. Des larmes
10. Parler d'avenir
11. On a besoin d'y croire
12. Retenir l'eau
Bonus tracks:
13. Untitled
14. Histoire de fesses (Extended Version)

Отчёт EAC:

Exact Audio Copy V1.3 from 2. September 2016
EAC extraction logfile from 5. December 2018, 12:48
Mylene Farmer / Desobeissance (Nouvelle Edition)
Used drive : PIONEER BD-RW BDR-XD04 Adapter: 1 ID: 1
Read mode : Secure
Utilize accurate stream : Yes
Defeat audio cache : Yes
Make use of C2 pointers : No
Read offset correction : 667
Overread into Lead-In and Lead-Out : No
Fill up missing offset samples with silence : Yes
Delete leading and trailing silent blocks : No
Null samples used in CRC calculations : Yes
Used interface : Native Win32 interface for Win NT & 2000
Used output format : Internal WAV Routines
Sample format : 44.100 Hz; 16 Bit; Stereo
TOC of the extracted CD
Track | Start | Length | Start sector | End sector
---------------------------------------------------------
1 | 0:00.00 | 3:45.70 | 0 | 16944
2 | 3:45.70 | 4:16.17 | 16945 | 36161
3 | 8:02.12 | 3:59.37 | 36162 | 54123
4 | 12:01.49 | 3:39.68 | 54124 | 70616
5 | 15:41.42 | 1:57.37 | 70617 | 79428
6 | 17:39.04 | 3:37.20 | 79429 | 95723
7 | 21:16.24 | 3:34.67 | 95724 | 111840
8 | 24:51.16 | 3:15.10 | 111841 | 126475
9 | 28:06.26 | 3:48.65 | 126476 | 143640
10 | 31:55.16 | 3:31.41 | 143641 | 159506
11 | 35:26.57 | 3:48.65 | 159507 | 176671
12 | 39:15.47 | 4:13.21 | 176672 | 195667
13 | 43:28.68 | 3:43.69 | 195668 | 212461
14 | 47:12.62 | 3:05.17 | 212462 | 226353
Range status and errors
Selected range
Filename C:\EAC Rips\Desobeissance (Nouvelle Edition)\Mylene Farmer - Desobeissance (Nouvelle Edition).wav
Peak level 98.8 %
Extraction speed 1.7 X
Range quality 99.9 %
Test CRC 4921F479
Copy CRC 4921F479
Copy OK
No errors occurred
AccurateRip summary
Track 1 not present in database
Track 2 not present in database
Track 3 not present in database
Track 4 not present in database
Track 5 not present in database
Track 6 not present in database
Track 7 not present in database
Track 8 not present in database
Track 9 not present in database
Track 10 not present in database
Track 11 not present in database
Track 12 not present in database
Track 13 not present in database
Track 14 not present in database
None of the tracks are present in the AccurateRip database
End of status report
==== Log checksum 2857BAF7F554A72DFE278040A1EB6D9C94E933FDC447D77CB280BBE42536A48A ====

Отчёт auCDtect Task manager:

-----------------------
DON'T MODIFY THIS FILE
-----------------------
PERFORMER: auCDtect Task Manager, ver. 1.6.0 RC1 build 1.6.0.1
Copyright (c) 2008-2010 y-soft. All rights reserved
ANALYZER: auCDtect: CD records authenticity detector, version 0.8.2
Copyright (c) 2004 Oleg Berngardt. All rights reserved.
Copyright (c) 2004 Alexander Djourik. All rights reserved.
FILE: Mylene Farmer - Desobeissance (Nouvelle Edition).ape
Size: 332986632 Hash: 4811047E8608960D5D6F41F7CF539FDD Accuracy: -m0
Conclusion: CDDA 99%
Signature: 81E004F50E94FEA8B2E6B646CAA7352768C4055C

[Цитировать]



Показать сообщения:    

Текущее время: 19-Янв 11:18

Часовой пояс: UTC + 6


Вы не можете начинать темы
Вы не можете отвечать на сообщения
Вы не можете редактировать свои сообщения
Вы не можете удалять свои сообщения
Вы не можете голосовать в опросах
Вы не можете прикреплять файлы к сообщениям
Вы не можете скачивать файлы

!ВНИМАНИЕ!
Сайт не предоставляет электронные версии произведений, а занимается лишь коллекционированием и каталогизацией ссылок, присылаемых и публикуемых на форуме нашими читателями. Если вы являетесь правообладателем какого-либо представленного материала и не желаете, чтобы ссылка на него находилась в нашем каталоге, свяжитесь с нами, и мы незамедлительно удалим ее. Файлы для обмена на трекере предоставлены пользователями сайта, и администрация не несет ответственности за их содержание. Просьба не заливать файлы, защищенные авторскими правами, а также файлы нелегального содержания!