[ Сегодня идет свободное скачивание без начисления Download ]


Статистика раздачи
Качаю: [ 3 ]
Скачал: [ 19 ]
 
   
 
 
 
 
Прорыв
Changgwol
- Информация
Производство: Южная Корея / Liyang Film, Next Entertainment World
Жанр: Ужасы, боевик, триллер
Режиссер: Ким Сон-хун
Актеры: Хён Бин, Чан Дон-гон, Чо У-джин, Ким И-сон, Со Джи-хе, Чон Ман-щик, Чо Даль-хван, Ли Сон-бин, Пак Чин-у, Хан Джи-ын
Описание:
Чосонский принц Ли Чхон оказался пленником династии Цин. Однако нельзя сказать, что парень сильно страдает: алкоголь, азартные игры и всяческие интрижки не оставляют Ли Чхуну времени на тоску по родине. Пройдет 10 лет, прежде чем старший брат принца Ли Ён сможет вернуть трон и освободить брата. Вернувшегося Ли Чхона ожидает сюрприз — страну накрывает эпидемия зомби.


Дата мировой премьеры: 25 октября 2018
Продолжительность: 02:01:11
Перевод: Двухголосый закадровый, любительский (SOFTBOX)
Файл
Качество видео: WEBRip Сэмпл
Видео: AVC/H.264, 1920x1080, ~5021 Kbps
Аудио: AC-3, 2 ch, 192 Kbps
Субтитры: Отсутствуют

MediaInfo:

Общее
Полное имя : E:\Proryv 2018 WEB-DL 1080p-LQ.mkv
Формат : Matroska
Версия формата : Version 2
Размер файла : 4,50 Гбайт
Продолжительность : 2 ч. 1 м.
Общий поток : 5319 Кбит/сек
Программа кодирования : libmatroska 1.4.1
Библиотека кодирования : SolveigMM Matroska Muxer Version 1.0.1502.31
Видео
Идентификатор : 1
Формат : AVC
Формат/Информация : Advanced Video Codec
Профиль формата : High@L4
Настройки формата : CABAC / 4 Ref Frames
Параметр CABAC формата : Да
Параметр RefFrames формата : 4 кадра
Идентификатор кодека : V_MPEG4/ISO/AVC
Продолжительность : 2 ч. 1 м.
Битрейт : 5021 Кбит/сек
Ширина : 1920 пикселей
Высота : 1080 пикселей
Соотношение сторон : 16:9
Режим частоты кадров : Постоянный
Частота кадров : 23,976 кадра/сек
Цветовое пространство : YUV
Субдискретизация насыщенности : 4:2:0
Битовая глубина : 8 бит
Тип развёртки : Прогрессивная
Бит/(Пиксели*Кадры) : 0.101
Размер потока : 4,25 Гбайт (94%)
Язык : Korean
Default : Нет
Forced : Нет
Аудио
Идентификатор : 2
Формат : AC-3
Формат/Информация : Audio Coding 3
Идентификатор кодека : A_AC3
Продолжительность : 2 ч. 1 м.
Вид битрейта : Постоянный
Битрейт : 192 Кбит/сек
Каналы : 2 канала
Расположение каналов : Front: L R
Частота : 48,0 КГц
Частота кадров : 31,250 кадров/сек (1536 SPF)
Битовая глубина : 16 бит
Метод сжатия : С потерями
Размер потока : 166 Мбайт (4%)
Язык : Russian
ServiceKind/String : Complete Main
Default : Нет
Forced : Нет

Скриншоты

Скриншоты:

[Цитировать]

????

[Цитировать]



Показать сообщения:    

Текущее время: 17-Дек 00:54

Часовой пояс: UTC + 6


Вы не можете начинать темы
Вы не можете отвечать на сообщения
Вы не можете редактировать свои сообщения
Вы не можете удалять свои сообщения
Вы не можете голосовать в опросах
Вы не можете прикреплять файлы к сообщениям
Вы не можете скачивать файлы

!ВНИМАНИЕ!
Сайт не предоставляет электронные версии произведений, а занимается лишь коллекционированием и каталогизацией ссылок, присылаемых и публикуемых на форуме нашими читателями. Если вы являетесь правообладателем какого-либо представленного материала и не желаете, чтобы ссылка на него находилась в нашем каталоге, свяжитесь с нами, и мы незамедлительно удалим ее. Файлы для обмена на трекере предоставлены пользователями сайта, и администрация не несет ответственности за их содержание. Просьба не заливать файлы, защищенные авторскими правами, а также файлы нелегального содержания!